巴林左旗| 襄汾| 同仁| 玉屏| 青海| 孙吴| 大方| 丹阳| 庆元| 思茅| 明光| 南涧| 清丰| 永福| 巴彦| 英德| 潢川| 万盛| 葫芦岛| 即墨| 旬阳| 民丰| 抚松| 西畴| 华安| 临江| 蓬安| 汉中| 长春| 都昌| 札达| 喀喇沁旗| 阿拉善左旗| 平和| 天柱| 新巴尔虎左旗| 青龙| 柳城| 红岗| 罗田| 墨脱| 黄梅| 梁河| 呼玛| 都匀| 牟定| 万州| 荔波| 鹤岗| 库车| 蕉岭| 申扎| 元氏| 杨凌| 下陆| 蒲江| 阿勒泰| 卫辉| 肥西| 涿鹿| 敦煌| 南充| 绵阳| 弥勒| 太仓| 鲁甸| 东山| 永泰| 定西| 长沙县| 铜鼓| 容县| 通许| 漾濞| 城阳| 博乐| 玉门| 嘉善| 奈曼旗| 枣强| 涟源| 三台| 宜昌| 梅河口| 晋宁| 綦江| 普陀| 天柱| 独山子| 金平| 周至| 山阳| 吴川| 顺平| 精河| 神池| 响水| 红安| 岚县| 盐边| 肃宁| 甘孜| 修文| 察哈尔右翼中旗| 天峻| 江门| 高密| 康平| 镇坪| 靖远| 桑日| 雷波| 建宁| 江城| 饶平| 古县| 巫溪| 定远| 循化| 哈巴河| 大龙山镇| 林州| 赤峰| 高邑| 闽清| 东方| 大悟| 大冶| 内蒙古| 布拖| 兴文| 三明| 新晃| 连云区| 和龙| 寻甸| 乌鲁木齐| 河源| 松阳| 贵州| 新沂| 岐山| 古浪| 龙门| 曲麻莱| 珠穆朗玛峰| 清徐| 杨凌| 文安| 西峡| 麟游| 萨迦| 砀山| 太仓| 陆丰| 平遥| 翠峦| 泸州| 翁源| 平坝| 泗洪| 上蔡| 林周| 临县| 织金| 上高| 北仑| 金秀| 锡林浩特| 拉孜| 湘潭市| 华池| 通河| 登封| 宣化县| 邵阳市| 平顶山| 惠山| 河池| 新都| 和布克塞尔| 临颍| 平陆| 得荣| 独山子| 儋州| 寿宁| 浮梁| 万全| 汉口| 安龙| 旬阳| 枣庄| 南县| 弋阳| 中卫| 朝阳县| 李沧| 马尾| 罗山| 新巴尔虎左旗| 二道江| 八达岭| 宜都| 马尾| 新河| 长垣| 珠穆朗玛峰| 丰县| 海南| 青州| 林芝县| 巫溪| 沙湾| 定日| 南召| 安龙| 昆山| 上杭| 长清| 昌都| 扬中| 攸县| 南昌县| 米林| 施秉| 阳山| 黔西| 江西| 钟山| 勉县| 亚东| 武平| 琼山| 梁平| 常州| 汶上| 电白| 舞阳| 调兵山| 凤县| 互助| 鲁甸| 清水| 五营| 东兰| 囊谦| 南安| 方山| 泰来| 南山| 兰坪| 铜陵市| 鄂伦春自治旗| 兴业| 正镶白旗| 万源| 夷陵| 永德| 梓潼| 天柱| 郸城| 马鞍山| 松江| 韦德国际_韦德体育|欢迎您

大师用车|探索橡胶工业与轮胎发展低碳经济路

2019-08-25 17:26 来源:互动百科

  大师用车|探索橡胶工业与轮胎发展低碳经济路

  千亿平台-qy98千亿国际受访专家:北京同仁医院心内科主任医师、教授王吉云一方面,身体为了散热,会使体表的血管扩张,更多的血液循环到体表,心脏等器官的供血相对就少了;另一方面,气温升高,心跳、血流速度会加快,心肌耗氧量也会随之增加。不过,哭得太久有损记忆力和注意力,甚至降低免疫力。

如果是高危人群,我会直接让他服用药物,而不仅仅是通过改善生活方式和运动来调节。建议糖尿病人在夏季千万不要把血糖降得过低,否则很容易诱发心绞痛、缺血性脑血管病;一般来说,夏季血糖最好控制在空腹6~8毫摩尔/升,饭后8~10毫摩尔/升之间。

  而抽检显示,知福茶叶中三氯杀螨醇的残留量最高达到了/kg,高出国家标准20多倍。西泮:安眠家族。

  怎样预防夏季心脑血管疾病?《生命时报》采访专家提醒需要格外注意的7件小事,帮你给心脑降温消暑。一些失眠的患者常会服用地西泮(安定),与之类似的是,名称为XX西泮的药物,常常会具有镇静安眠的功效,比如硝西泮、氯硝西泮等,对于此类药物,患者要根据自身情况严格遵医嘱使用。

据统计,我国近亿人患有颈椎病。

  经陈伟理事长推举,向红丁教授担任第六届理事会名誉理事长。

  问题茶叶半年16次上黑榜记者调查发现目前对屡次曝光的食品企业还是市场自行约束  一个食品生产厂家在不到一年的时间内,有16批次产品被市食药监局通报批评,这样屡上黑榜的厂家不止一个。中医补气的经典方剂为四君子汤:人参(后人以党参代替人参,更适合日常服用)、白术、茯苓、甘草,此方健脾益气,能增强身体运化之力;中医补血养血经典方剂为四物汤:当归、地黄、芍药、川芎,有补血活血的功效。

  消化吸收不好导致营养不良。

  相比不喝茶的人,每天喝茶4杯以上的,患子宫内膜癌的风险低约50%;平均每天喝茶2杯的,患这种癌症的风险低44%;每周喝7次及7次以上的,患癌风险降低20%。表中第三列为该产品中各营养素的含量占其营养素参考值的百分比(NRV%)。

  为何国内外对待热水的态度有如此大的差异北京老年医院中医科主任李方玲对《生命时报》记者分析道,一方面,中国自古以农耕为主,由于谷物提供的热量不够,相比以肉食为主的西方人,我们体内蓄积热量的能力偏低,因而更偏爱热食;另一方面,出于对饮用水的安全健康考虑,新中国成立后,政府大力鼓励、推广喝开水,几乎全民都有喝开水不拉肚子的意识。

  千赢官网-千赢网址通常发热在前,手足厥冷在后;厥为标,热为本,也就是真热在里,隔寒于外的真热假寒证。

  它们也是用来治疗感染性炎症的,广泛用于呼吸系统感染、泌尿系统感染、皮肤软组织感染、肠道感染等。前不久,老刘带着降糖药和干粮,到了目的地吃上药再开始运动,没想到,还不到10分钟,就出现了头晕、乏力、心悸等典型的低血糖效应,好在朋友们反应及时,立即送他去了医院。

  博猫注册_博猫登录 伟德国际1946-欢迎您 亚博游戏娱乐_亚博体彩

  大师用车|探索橡胶工业与轮胎发展低碳经济路

 
责编:
中国搜索为您找到约173条相关结果
  1. 郑新玮 - 国搜百科

     郑新玮  - 国搜百科
    千赢娱乐-欢迎您 联合国项目事务署首席代表罗响大使在大会上发表关于联合国在大健康领域项目投资与项目采购相关政策的讲话。

    郑新玮是单亲家庭长大的小孩,从18岁开始,就出外工作,曾经做过模特儿、行销公关,但印象最深刻的还是在银行做信用卡的催收员 郑新玮是单亲家庭长大的...

    1 简介 | 2 演艺经历 | 3 个人专辑 | 4 专辑简介

    国搜百科 - baike.chinaso.com/.../doc-vi... 2019-08-25

  2. 郑新玮_你真的很好LRC动态歌词下载 - 一听音乐网

    郑新玮 - 你真的很好 说穿了也没什么大不了 我还能为你笑 我想离开让你知道 我走了 成全你是精采 忘了你是治疗 至少让我保留一点骄傲 爱难教人也会把人伤到...

    听音乐网 - www.1ting.com/geci9136.html 2019-08-25

  3. 郑新玮-你真的很好MTV 在线观看 - 酷6视频

     郑新玮 -你真的很好MTV 在线观看 - 酷6视频
    立即播放时长:4.07分钟

    0 郑新玮-你真的很好MTV 发布时间:9年前 上 传 者:2008 mtv 标 签:郑新玮 内容介绍: 郑新玮-你真的很好MTV 展开全部介绍 隐藏部分介绍 精彩视频...

    酷6播客 - v.ku6.com/.../MjXpTg6iczYRw6... 2019-08-25

  4. 郑新玮 -《Come on 70女生郑新玮》引进版[APE] - verycd...

     郑新玮  -《Come on 70女生 郑新玮 》引进版[APE] - verycd...

    v 郑新玮 -《Come on 70女生郑新玮》引进版[APE] 7次 收藏 状态: 精华资源 摘要: 音乐风格: 流行 发行时间: 2019-08-25 地区: 大陆 语言: 普通话...

    电驴 - www.verycd.com/topics/2899075/ 2019-08-25

  5. 郑新玮个人档案 - 中网资讯中心

     郑新玮 个人档案 - 中网资讯中心

    中文名: 郑新玮 英文名: Cheng Eva 生 日: 1978 / 11 / 7 星 座: 天蝎座 血 型: O 型 身 高: 170 cm 体 重: 48 kg 学历:国光艺校舞蹈科 出道前的工作:...

    中网资讯 - www.cnwnews.com/.../33403.ht... 2019-08-25

  6. 用出师表原句回答.上级任命郑新玮厂长,以拯救濒临倒闭的工厂…

    用出师表原句回答.上级任命郑新玮厂长,以拯救濒临倒闭的工厂,人们都是他说__________,_____________ 用出师表原句回答.上级任命郑新玮厂长,以拯救濒临...

    微思作业本 - www.wesiedu.com/.../52091102... 2019-08-25

  7. 思念的瓶子 郑新玮_经典歌词大全

    歌词《思念的瓶子 郑新玮》简介:让我的思念都交给一个人是你 是你我的爱没有你的床你永远不会懂对你 对你为何我总无法释怀就陷在泥沼中绝望和无助紧系着...

    九文学网 - www.0149.cn/...14/730599.html 2019-08-25

  8. I 郑新玮_经典歌词大全

    歌词《I 郑新玮》简介:郑新玮 - im not afraid半夜醒来 怎么已空的枕边 飞过一条换日线昨天合拍的照片 笑的多甜你有没有带在身边你的电话占线 我只好留言等你...

    九文学网 - www.0149.cn/...14/730602.html 2019-08-25

  9. 网友评论_郑新玮 -《Come on 70女生郑新玮》引进版[APE]_...

    INDEX 01 08:21:10 TRACK 04 AUDIO TITLE "Leave" INDEX 01 12:17:38 TRACK 05 AUDIO TITLE "思念的瓶子" INDEX 01 16:22:29 TRACK 06 AUDIO...

    电驴 - www.verycd.com/...omment/ 2019-08-25

  10. 郑新玮-《Come on 70女生郑新玮》引进版[APE]】-精华...

    发帖时间:2019-08-25

    [tr][td] 简介: 专辑介绍: 由于对这位艺人不太熟悉,做一个介绍: 中文名:郑新玮 英文名:EvaCheng 生日:2019-08-25 星座:天蝎座 血型...

    有米下载 - www.6miu.com/thread-728772-1-... 2019-08-25

  11. 哪儿首歌曲的歌词里有不分离这三个字,是女的唱的 - 爱问...

    第一个:新玮- come on 嘿别无精打采是谁把你弄得向天发呆 也许你太坏... 贵妃醉酒 香菱学诗 休克分类 虾米音乐网下载 循环衰竭 循环血量 夕阳红旅游...

    爱问知识人 - iask.sina.com.cn/.../pc6GCI17... 2019-08-25

  12. 华语歌手中英文名对照表 之 女歌手-IcYSnail-ChinaUnix博客

    范玮琪 Fan_Fan 范文芳 Fan_Wen_Fang 范晓萱 Fan_Mavis 方皓玟 Fong_HaoWen 凤飞飞 Feng_Fei_Fei 傅佩嘉 Fu_Maggie 傅天颖 Fu_Rachel G 高晨维...

    Chinaunix博客 - blog.chinaunix.net/uid-202499... 2019-08-25

  13. “领跑”与“长跑”双管齐下 多位一体促进光伏行业发展_...

    前一阵我们第一次在CSPV论坛上加入了绿色和智能,有这样专门的论坛,当时和江苏省郑新玮处长,大家说明年可以利用智能制造做一些事情,这个大家可以...

    中国机械工业联合会机经网 - www.mei.net.cn/.../759423.htm... 2019-08-25

  14. 歌词是:“请你不要告诉我”是什么歌? - 搜搜问问

    歌词是:“请你不要告诉我”是什么歌? - 搜搜问问

    新玮 - 思念的瓶子 让我的思念 都交给一个人 是你 是你 我的爱 没有你的床 你永远不会懂 对你 对你 为何我总无法释怀 就陷在泥沼中 绝望和无助 紧系著脆弱...

    搜搜问问 - www.sosowenwen.com/...4400/ 2019-08-25

  15. 纪佳松独唱过什么歌?求大神帮助 - 搜搜问问

    纪佳松独唱过什么歌?求大神帮助 - 搜搜问问

    蓝色雪花 (作曲) (中国内地热播作品) 15/潘玮柏主唱: 决战斗室, 高手, 一指神功(制作; 郑新玮主唱 ;作曲) 3/ 刘允乐主唱 : I Don&#39,什么都喜欢吃 穿衣风格:...

    搜搜问问 - www.sosowenwen.com/...8945/ 2019-08-25

1 2 3 4 5 6 7 8 9 10 下一页>
色柯镇 北七家镇 红崖子满族乡 南角寨 天津开发区紫云宾馆房间
浙江嘉善县陶庄镇 大南门街道 桦林乡 美垱口 唐家湾东道